TorrentPortal

Search

Go

 :: File Stats

Men in Black III 2012 LIMITED BRRIP 720p AUDIO HINDI-5.1 Ch ORIGINAL (BY-GPSOFT) Torrent Details

Filename: Men in Black III 2012 LIMITED BRRIP 720p AUDIO HINDI-5.1 Ch ORIGINAL (BY-GPSOFT).torrent
Type
Movies
Seed/Leech
0 seeder(s), 0 leecher(s), 0 total peer(s) - Torrent Health: Health 0/5
0 downloads completed with 0.00KB (0 bytes) transferred (not reported)
Last Stats Update: 106 weeks 2 days 2 hours 22 minutes ago - Live Stats down the page
Rating

Torrent Rating:0.0/5 ( votes cast)
Please only rate torrents you have downloaded.

Flag
No flags set       (Log in to flag it)
Info Hash
857a0a35b81b1717794731c414234406a0a0c75b
Tracker
http://exodus.desync.com:6969/announce
Size
704.01 MB (738,209,235 bytes)
Added
2012-03-27 21:47:25 - 108 weeks 1 days 7 hours 31 minutes ago
Uploaded By
Matthew21 (Karma: 3)
Number of Files
4 files
[Hide File List]
Files
PathSize
/2012 LIMITED BRRIP 720p AUDIO HINDI-5.1 Ch ORIGINAL (BY-GPSOFT).nfo1.42 KB
/Men in Black III 2012 LIMITED BRRIP 720p AUDIO HINDI-5.1 Ch ORIGINAL (BY-GPSOFT).avi704.01 MB
/Torrent downloaded from Demonoid.me.txt0.04 KB
/tracker.txt.txt1.54 KB
Password
No password specified

Usenet

This file may be available on Usenet for direct download. Click here to Search.
Download This Torrent
Magnet Link
Direct Download
Download (No Client Needed) Stream Video
Try the Magnet Link (above) if the .torrent doesn't work.
Most modern clients support magnet links, if yours does not, try uTorrent.
LIVE TORRENT STATS:

Screenshot/Image:

No Screenshot/Image Uploaded

Description:

Men in Black III (2012)
Action | Comedy | Sci-Fi  -


Agent J travels in time to MIB's early years in the 1960s, to stop an alien from assassinating his friend Agent K and changing history.

Director:
Barry Sonnenfeld
Writers:
Lowell Cunningham (comic), David Koepp (screenplay), and 3 more credits
Stars:
Will Smith, Tommy Lee Jones and Josh Brolin

VIDEO :- HD-1080p FROM MY OWN BLU-RAY
AUDIO :- HINDI 5.1CH ORIGINAL FROM MY SONY-DVD

General
************
Complete name : Men in Black III 720P BRRIP AUD-HINDI DD-5.1 (ORIGINAL BY GPSOFT)
Format : Matroska
Format version : Version 2
Duration : 1h 59mn
Overall bit rate : 2 632 Kbps
Movie name : Men in Black III 720P BRRIP AUD-HINDI DD-5.1 (ORIGINAL BY GPSOFT)
Writing application : mkvmerge v5.1.0 ('And so it goes') built on March 27 2012 23:58:28
Writing library : libebml v1.2.3 + libmatroska v1.3.0

Video
********
ID : 1
Format : AVC
Format/Info : Advanced Video Codec
Format profile : Main@L3.1
Format settings, CABAC : Yes
Format settings, ReFrames : 1 frame
Muxing mode : Header stripping
Codec ID : V_MPEG4/ISO/AVC
Duration : (1h 59mn 23se)
Bit rate : 2 119 Kbps
Width : 1 280 pixels
Height : 688 pixels
Display aspect ratio : 1.860
Frame rate : 25.000 fps
Original frame rate : 23.976 fps
Color space : YUV
Chroma subsampling : 4:2:0
Bit depth : 8 bits
Scan type : Progressive
Bits/(Pixel*Frame) : 0.096
Stream size : 1.78 GiB (81%)
Title : Men in Black III 720P BRRIP AUD-HINDI DD-5.1 (ORIGINAL BY GPSOFT)

http://www.youtube.com/watch?v=EDPYq4BFHBI

Audio
********
ID : 2
Format : AC-3
Format/Info : Audio Coding 3
Mode extension : CM (complete main)
Muxing mode : Header stripping
Codec ID : A_AC3
Duration : (1h 59mn 23se)
Bit rate mode : Constant
Bit rate : 448 Kbps
Channel(s) : 6 channels
Channel positions : Front: L C R, Side: L R, LFE
Sampling rate : 48.0 KHz
Bit depth : 16 bits
Compression mode : Lossy
Delay relative to video : 2s 500ms
Stream size : 383 MiB (17%)
Title : HINDI DD-5.1 (ORIGINAL BY GPSOFT)
Language : Hindi
Default : Yes
Forced : No

http://img1.UploadScreenshot.com/images/main/3/7717230144.png
http://img1.UploadScreenshot.com/images/main/3/7717251311.png
http://img1.UploadScreenshot.com/images/main/3/7717264733.png

 :: File Comments

No comments yet

Add a comment

 :: Related Torrents

Login to see Related Torrents





By using this site, you are agreeing to the Terms and Conditions
TorrentPortal only stores .torrent files for cache purposes. All torrent data gathered has been scraped from the web or submitted by users.
DMCA CONTENT REMOVAL: to have content removed email infringement (AT) torrentportal.com with the URL to the torrent details page.
torrent rss feeds (RSS) (XML) ALL = Games Movies TV Videos Apps Anime Audio Comics Unsorted