TorrentPortal

Search

Go

 :: File Stats

The Avengers (2012) HDRip AC3 H264-CRYS Torrent Details

Filename: The Avengers (2012) HDRip AC3 H264-CRYS.torrent
Type
Movies
Seed/Leech
0 seeder(s), 0 leecher(s), 0 total peer(s) - Torrent Health: Health 0/5
0 downloads completed with 0.00KB (0 bytes) transferred (not reported)
Last Stats Update: 103 weeks 1 days 2 hours 22 minutes ago - Live Stats down the page
Rating

Torrent Rating:0.0/5 ( votes cast)
Please only rate torrents you have downloaded.

Flag
No flags set       (Log in to flag it)
Info Hash
5cb5a4ba3c926cd675bab36d664c5d75e90c6386
Tracker
http://www.deviloid.net:55000/announce
Size
901.99 MB (945,801,777 bytes)
Added
2012-04-15 05:44:18 - 106 weeks 4 days 23 hours 34 minutes ago
Uploaded By
helenok5 (Karma: 0)
Number of Files
5 files
[See File List]
Password
No password specified

Usenet

This file may be available on Usenet for direct download. Click here to Search.
Download This Torrent
Magnet Link
Direct Download
Download (No Client Needed) Stream Video
Try the Magnet Link (above) if the .torrent doesn't work.
Most modern clients support magnet links, if yours does not, try uTorrent.
LIVE TORRENT STATS:

Screenshot/Image:

No Screenshot/Image Uploaded

Description:

The Avengers (2012) HDRip AC3 H264-CRYS

Format                                                                                   : AVI
Format/Info                                                                           : Audio Video Interleave
Format profile                                                                       : OpenDML
File size                                                                                  : 1.31 GiB
Duration                                                                                : 1h 50mn
Overall bit rate                                                                      : 1 698 Kbps
Writing application                                                               : VirtualDubMod 1.5.10.2 (build 2542/release)
Writing library                                                                       : VirtualDubMod build 2542/release
Original source form                                                            : MAX TORRENTZ
Copyright                                                                              : SIGISMUNT

Video
ID                                                                                            : 0
Format                                                                                   : MPEG-4 Visual
Format profile                                                                       : AdvancedSimple@L5
Format settings, BVOP                                                         : Yes
Format settings, QPel                                                           : No
Format settings, GMC                                                           : No warppoints
Format settings, Matrix                                                        : Default (H.263)
Codec ID                                                                                 : XVID
Codec ID/Hint                                                                        : XviD
Duration                                                                                 : 1h 50mn
Bit rate                                                                                    : 1 245 Kbps
Width                                                                                      : 720 pixels
Height                                                                                      : 384 pixels
Display aspect ratio                                                                : 1.875
Frame rate                                                                               : 23.976 fps
Resolution                                                                                : 24 bits
Colorimetry                                                                              : 4:2:0
Scan type                                                                                  : Progressive
Bits/(Pixel*Frame)                                                                    : 0.188
Stream size                                                                                : 983 MiB (73%)
Writing library                                                                           : XviD 1.2.1 (UTC 2008-12-04)

Audio
ID                                                                                               : 1
Format                                                                                      : AC-3
Format/Info                                                                              : Audio Coding 3
Codec ID                                                                                   : 2000
Duration                                                                                   : 1h 50mn
Bit rate mode                                                                           : Constant
Bit rate                                                                                      : 448 Kbps
Channel(s)                                                                                : 6 channels
Channel positions                                                                   : Front: L C R, Surround: L R, LFE
Sampling rate                                                                          : 48.0 KHz
Stream size                                                                              : 354 MiB (26%)
Alignment                                                                                : Aligned on interleaves
Interleave, duration                                                                : 64 ms (1.53 video frames)
Interleave, preload duration                                                  : 192 ms

 :: File Comments

No comments yet

Add a comment

 :: Related Torrents

Login to see Related Torrents





By using this site, you are agreeing to the Terms and Conditions
TorrentPortal only stores .torrent files for cache purposes. All torrent data gathered has been scraped from the web or submitted by users.
DMCA CONTENT REMOVAL: to have content removed email infringement (AT) torrentportal.com with the URL to the torrent details page.
torrent rss feeds (RSS) (XML) ALL = Games Movies TV Videos Apps Anime Audio Comics Unsorted