TorrentPortal

Search

Go

 :: File Stats

The Avengers (2012) FRENCH DVDRip XviD - WBZ Torrent Details

Filename: The.Avengers.2012.FRENCH.DVDRip.XviD-WBZ.torrent
Type
Movies
Seed/Leech
1 seeder(s), 0 leecher(s), 1 total peer(s) - Torrent Health: Health 1/5
0 downloads completed with 0.00KB (0 bytes) transferred (not reported)
Last Stats Update: 2 weeks 6 days 23 hours 3 minutes ago - Live Stats down the page
Rating

Torrent Rating:0.0/5 ( votes cast)
Please only rate torrents you have downloaded.

Flag
No flags set       (Log in to flag it)
Info Hash
17d0dbfca4fb5b5bd20487e63bc9cc9414a05b74
Tracker
http://exodus.desync.com:6969/announce
Size
712.08 MB (746,668,025 bytes)
Added
2012-04-27 16:51:02 - 103 weeks 2 days 10 hours 45 minutes ago
Uploaded By
xoRox (Karma: 0)
Number of Files
5 files
[See File List]
Password
No password specified

Usenet

This file may be available on Usenet for direct download. Click here to Search.
Download This Torrent
Magnet Link
Direct Download
Download (No Client Needed) Stream Video
Try the Magnet Link (above) if the .torrent doesn't work.
Most modern clients support magnet links, if yours does not, try uTorrent.
LIVE TORRENT STATS:

Screenshot/Image:

Description:



The.Avengers.2012.FRENCH.DVDRip.XviD-WBZ
Format : AVI
Format/Info : Audio Video Interleave
Format profile : OpenDML
File size : 712 MiB
Duration : 2h 22mn
Overall bit rate : 1 052 Kbps
Writing application : VirtualDubMod 1.5.10.2 (build 2542/release)
Writing library : VirtualDubMod build 2542/release
Video
ID : 0
Format : MPEG-4 Visual
Format profile : AdvancedSimple@L5
Format settings, BVOP : Yes
Format settings, QPel : No
Format settings, GMC : No warppoints
Format settings, Matrix : Default (MPEG)
Codec ID : XVID
Codec ID/Hint : XviD
Duration : 2h 22mn
Bit rate : 942 Kbps
Width : 640 pixels
Height : 272 pixels
Display aspect ratio : 2.35:1
Frame rate : 23.976 fps
Resolution : 24 bits
Colorimetry : 4:2:0
Scan type : Progressive
Bits/(Pixel*Frame) : 0.271
Stream size : 676 MiB (78%)
Writing library : XviD 1.2.1 (UTC 2008-12-04)
Audio
ID : 1
Format : AC-3
Format/Info : Audio Coding 3
Codec ID : 2000
Duration : 2h 22mn
Bit rate mode : Constant
Bit rate : 128 Kbps
Channel(s) : 2 channels
Channel positions : Front: L  R
Sampling rate : 48.0 KHz
Stream size : 36 MiB (22%)
Alignment : Aligned on interleaves
Interleave, duration : 64 ms (1.53 video frames)
Interleave, preload duration : 192 ms
Source: DVD (perfect a/v/sync quality,sample included)

Nick Fury of S.H.I.E.L.D. brings together
a team of super humans to form The Avengers to help save the Earth from Loki and his army.

This torrent is not seedbox supported,please seed it.

 :: NFO for The Avengers (2012) FRENCH DVDRip XviD - WBZ
The.Avengers.2012.FRENCH.DVDRip.XviD-WBZ
Format : AVI
Format/Info : Audio Video Interleave
Format profile : OpenDML
File size : 712 MiB
Duration : 2h 22mn
Overall bit rate : 1 052 Kbps
Writing application : VirtualDubMod 1.5.10.2 (build 2542/release)
Writing library : VirtualDubMod build 2542/release
Video
ID : 0
Format : MPEG-4 Visual
Format profile : AdvancedSimple@L5
Format settings, BVOP : Yes
Format settings, QPel : No
Format settings, GMC : No warppoints
Format settings, Matrix : Default (MPEG)
Codec ID : XVID
Codec ID/Hint : XviD
Duration : 2h 22mn
Bit rate : 942 Kbps
Width : 640 pixels
Height : 272 pixels
Display aspect ratio : 2.35:1
Frame rate : 23.976 fps
Resolution : 24 bits
Colorimetry : 4:2:0
Scan type : Progressive
Bits/(Pixel*Frame) : 0.271
Stream size : 676 MiB (78%)
Writing library : XviD 1.2.1 (UTC 2008-12-04)
Audio
ID : 1
Format : AC-3
Format/Info : Audio Coding 3
Codec ID : 2000
Duration : 2h 22mn
Bit rate mode : Constant
Bit rate : 128 Kbps
Channel(s) : 2 channels
Channel positions : Front: L  R
Sampling rate : 48.0 KHz
Stream size : 36 MiB (22%)
Alignment : Aligned on interleaves
Interleave, duration : 64 ms (1.53 video frames)
Interleave, preload duration : 192 ms
Source: DVD (perfect a/v/sync quality,sample included)

Nick Fury of S.H.I.E.L.D. brings together
a team of super humans to form The Avengers to help save the Earth from Loki and his army.

This torrent is not seedbox supported,please seed it.
 :: File Comments

No comments yet

Add a comment

 :: Related Torrents

Login to see Related Torrents





By using this site, you are agreeing to the Terms and Conditions
TorrentPortal only stores .torrent files for cache purposes. All torrent data gathered has been scraped from the web or submitted by users.
DMCA CONTENT REMOVAL: to have content removed email infringement (AT) torrentportal.com with the URL to the torrent details page.
torrent rss feeds (RSS) (XML) ALL = Games Movies TV Videos Apps Anime Audio Comics Unsorted