TorrentPortal

Search

Go

 :: File Stats

American Pie Reunion 2012 720P TS XviD 26K Torrent Details

Filename: American Pie Reunion 2012 720P TS XviD 26K.torrent
Type
Movies
Seed/Leech
0 seeder(s), 0 leecher(s), 0 total peer(s) - Torrent Health: Health 0/5
0 downloads completed with 0.00KB (0 bytes) transferred (not reported)
Last Stats Update: 101 weeks 2 days 3 hours 3 minutes ago - Live Stats down the page
Rating

Torrent Rating:0.0/5 ( votes cast)
Please only rate torrents you have downloaded.

Flag
No flags set       (Log in to flag it)
Info Hash
79d87847c5fcc7b391512f4359e52080f7c0c498
Tracker
http://www.h33t.com:3310/announce
Size
772.44 MB (809,959,430 bytes)
Added
2012-04-28 07:05:51 - 103 weeks 2 days 22 hours 53 minutes ago
Uploaded By
yumtorrents (Karma: 0)
Number of Files
54 files
[See File List]
Password
No password specified

Usenet

This file may be available on Usenet for direct download. Click here to Search.
Download This Torrent
Magnet Link
Direct Download
Download (No Client Needed) Stream Video
Try the Magnet Link (above) if the .torrent doesn't work.
Most modern clients support magnet links, if yours does not, try uTorrent.
LIVE TORRENT STATS:

Screenshot/Image:

No Screenshot/Image Uploaded

Description:









CODE:


American.Pie.Reunion.2012.720P.TS.XviD.AC3-26K

Imdb:
http://www.imdb.com/title/tt1605630/

Plot:
Jim, Michelle, Stifler, and their friends reunite in East Great Falls, Michigan for

their high school reunion.

Sources:
VIDEO-hd files
audio-adtrg

Notes:
synced line to the hd cam turned out nice with some filters which were added to the

video so enjoy

Greetz:
Xtreme

Encode|FYA|ILLUMANTI|CM8|RX|VISION|HDSCENE|NIGHTMAREZ|xTriLL|DTRG|CRYS|REMIXHD|BIDA|

RX|REFILL|INSPiRAL|SIC|HOPE|Anonymous|GooN|P76|MIRAGE|ESCA|KoDeKinG

To all the people who have helped me you know who you are

Anything to offer email us @: 26k@hushmail.me

Video
ID : 0
Format : MPEG-4 Visual
Format profile : Advanced Simple@L5
Format settings, BVOP : 2
Format settings, QPel : No
Format settings, GMC : No warppoints
Format settings, Matrix : Default (H.263)
Codec ID : XVID
Codec ID/Hint : XviD
Duration : 1h 40mn
Bit rate : 2 018 Kbps
Width : 1 280 pixels
Height : 720 pixels
Display aspect ratio : 16:9
Frame rate : 29.970 fps
Color space : YUV
Chroma subsampling : 4:2:0
Bit depth : 8 bits
Scan type : Progressive
Compression mode : Lossy
Bits/(Pixel*Frame) : 0.073
Stream size : 1.42 GiB (86%)
Writing library : XviD 64

Audio
ID : 1
Format : MPEG Audio
Format version : Version 1
Format profile : Layer 3
Mode : Joint stereo
Mode extension : MS Stereo
Codec ID : 55
Codec ID/Hint : MP3
Duration : 1h 40mn
Bit rate mode : Constant
Bit rate : 320 Kbps
Channel(s) : 2 channels
Sampling rate : 48.0 KHz
Compression mode : Lossy
Delay relative to video : 6s 0ms
Stream size : 231 MiB (14%)
Alignment : Split accross interleaves
Interleave, duration : 24 ms (0.72 video frame)
Interleave, preload duration : 604 ms
Writing library : LAME3.99r
Encoding settings : -m j -V 4 -q 2 -lowpass 20.5

 :: File Comments

No comments yet

Add a comment

 :: Related Torrents

Login to see Related Torrents





By using this site, you are agreeing to the Terms and Conditions
TorrentPortal only stores .torrent files for cache purposes. All torrent data gathered has been scraped from the web or submitted by users.
DMCA CONTENT REMOVAL: to have content removed email infringement (AT) torrentportal.com with the URL to the torrent details page.
torrent rss feeds (RSS) (XML) ALL = Games Movies TV Videos Apps Anime Audio Comics Unsorted