TorrentPortal

Search

Go

 :: File Stats

The Avengers (2012) DVDRip XviD NeDiVx Torrent Details

Filename: The Avengers (2012) DVDRip XviD NeDiVx.torrent
Type
Movies
Seed/Leech
0 seeder(s), 0 leecher(s), 0 total peer(s) - Torrent Health: Health 0/5
0 downloads completed with 0.00KB (0 bytes) transferred (not reported)
Last Stats Update: 2 weeks 6 hours 43 minutes ago - Live Stats down the page
Rating

Torrent Rating:0.0/5 ( votes cast)
Please only rate torrents you have downloaded.

Flag
No flags set       (Log in to flag it)
Info Hash
d82b475b5024b9286ffb3235feeb785f7e825d26
Tracker
http://exodus.desync.com:6969/announce
Size
809.56 MB (848,881,534 bytes)
Added
2012-04-30 00:10:08 - 103 weeks 10 hours 58 minutes ago
Uploaded By
margaretsvp (Karma: 0)
Number of Files
7 files
[See File List]
Password
No password specified

Usenet

This file may be available on Usenet for direct download. Click here to Search.
Download This Torrent
Magnet Link
Direct Download
Download (No Client Needed) Stream Video
Try the Magnet Link (above) if the .torrent doesn't work.
Most modern clients support magnet links, if yours does not, try uTorrent.
LIVE TORRENT STATS:

Screenshot/Image:

No Screenshot/Image Uploaded

Description:

Plot:

Nick Fury of S.H.I.E.L.D. brings together a team of super humans to form The Avengers to help save the Earth from Loki and his army.




Format                           : AVI
Format/Info                      : Audio Video Interleave
Format profile                   : OpenDML
File size                        : 1.68 GiB
Duration                         : 1h 57mn
Overall bit rate                 : 2 049 Kbps
Writing application              : VirtualDubMod 1.5.10.2 (build 2542/release)
Writing library                  : VirtualDubMod build 2542/release
Original source form             : MAX TORRENTZ
Copyright                        : SIGISMUNT

Video
ID                               : 0
Format                           : MPEG-4 Visual
Format profile                   : AdvancedSimple@L5
Format settings, BVOP            : Yes
Format settings, QPel            : No
Format settings, GMC             : No warppoints
Format settings, Matrix          : Custom
Codec ID                         : XVID
Codec ID/Hint                    : XviD
Duration                         : 1h 57mn
Bit rate                         : 1 862 Kbps
Width                            : 720 pixels
Height                           : 304 pixels
Display aspect ratio             : 2.35:1
Frame rate                       : 23.976 fps
Resolution                       : 24 bits
Colorimetry                      : 4:2:0
Scan type                        : Progressive
Bits/(Pixel*Frame)               : 0.355
Stream size                      : 1.52 GiB (91%)
Writing library                  : XviD 1.2.0.dev47 (UTC 2006-11-01)

Audio
ID                               : 1
Format                           : AC-3
Format/Info                      : Audio Coding 3
Codec ID                         : 2000
Duration                         : 1h 57mn
Bit rate mode                    : Constant
Bit rate                         : 192 Kbps
Channel(s)                       : 2 channels
Channel positions                : L R
Sampling rate                    : 48.0 KHz
Stream size                      : 152 MiB (9%)
Alignment                        : Aligned on interleaves
Interleave, duration             : 68 ms (1.62 video frames)
Interleave, preload duration     : 192 ms


Source: DVD (perfect a/v/sync good quality,sample included)
This torrent is not seedbox supported,please seed it,

 :: File Comments

No comments yet

Add a comment

 :: Related Torrents

Login to see Related Torrents





By using this site, you are agreeing to the Terms and Conditions
TorrentPortal only stores .torrent files for cache purposes. All torrent data gathered has been scraped from the web or submitted by users.
DMCA CONTENT REMOVAL: to have content removed email infringement (AT) torrentportal.com with the URL to the torrent details page.
torrent rss feeds (RSS) (XML) ALL = Games Movies TV Videos Apps Anime Audio Comics Unsorted