TorrentPortal

Search

Go

 :: File Stats

Safe House DVDRip XviD-CLUB Torrent Details

Filename: Safe House DVDRip XviD-CLUB.torrent
Type
Movies
Seed/Leech
0 seeder(s), 0 leecher(s), 0 total peer(s) - Torrent Health: Health 0/5
0 downloads completed with 0.00KB (0 bytes) transferred (not reported)
Last Stats Update: 101 weeks 4 days 6 hours 24 minutes ago - Live Stats down the page
Rating

Torrent Rating:0.0/5 ( votes cast)
Please only rate torrents you have downloaded.

Flag
No flags set       (Log in to flag it)
Info Hash
36f007352508d94e55c76749737a84fb504bea0a
Tracker
http://tracker.t411.me:56969/
Size
706.66 MB (740,981,939 bytes)
Added
2012-04-30 02:11:40 - 102 weeks 2 days 6 hours 9 minutes ago
Uploaded By
roliviu (Karma: -3)
Number of Files
4 files
[See File List]
Password
No password specified

Usenet

This file may be available on Usenet for direct download. Click here to Search.
Download This Torrent
Magnet Link
Direct Download
Download (No Client Needed) Stream Video
Try the Magnet Link (above) if the .torrent doesn't work.
Most modern clients support magnet links, if yours does not, try uTorrent.
LIVE TORRENT STATS:

Screenshot/Image:

No Screenshot/Image Uploaded

Description:

Rating : 6.8/10
Genre : Action, Crime, Mystery, Thriller
Stars : Denzel Washington, Ryan Reynolds, Robert Patrick, Vera Farmiga
Director : Daniel Espinosa
Writers : David Guggenheim
Release Date : 10 Feb 2012
Movie Runtime : 1 hr 55 mins
Rated Under : R
Movie Plot : A young CIA agent is tasked with looking after a fugitive in a safe house. But when the safe house is attacked, he finds himself on the run with his charge.

http://www.imdb.com/title/tt1599348/

Format : AVI
Format/Info : Audio Video Interleave
Duration : 1h 45mn
Overall bit rate : 934 Kbps
Writing application : MEncoder SVN-r33823-4.1.2
Writing library : MPlayer

Video
ID : 0
Format : MPEG-4 Visual
Format profile : Advanced Simple@L5
Format settings, BVOP : Yes
Format settings, QPel : No
Format settings, GMC : No warppoints
Format settings, Matrix : Default (MPEG)
Codec ID : DX50
Codec ID/Hint : DivX 5
Duration : 1h 45mn
Bit rate : 794 Kbps
Width : 640 pixels
Height : 272 pixels
Display aspect ratio : 2.35:1
Frame rate : 25.000 fps
Color space : YUV
Chroma subsampling : 4:2:0
Bit depth : 8 bits
Scan type : Progressive
Bits/(Pixel*Frame) : 0.182
Stream size : 597 MiB (85%)
Writing library : XviD 1.2.1 (UTC 2008-12-04)

Audio
ID : 1
Format : MPEG Audio
Format version : Version 1
Format profile : Layer 3
Mode : Joint stereo
Mode extension : MS Stereo
Codec ID : 55
Codec ID/Hint : MP3

Bit rate mode : Constant
Bit rate : 128 Kbps
Channel(s) : 2 channels
Sampling rate : 44.1 KHz
Bit depth : 16 bits
Stream size : 96.3 MiB (14%)
Alignment : Aligned on interleaves
Interleave, duration : 26 ms (0.65 video frame)
Interleave, preload duration : 522 ms
Writing library : LAME3.98.4

This is not the file that got leaked , other file had alittle OSS .

Okay , just another sexy encode of ZOMBiES , PROBLEM ??
Video : thanks Lum1x
Audio : OWN
Syncing was a lil bitch , but i guess we got it pretty perfect .
just enjoy the encode and keep the drama away .

 :: File Comments

No comments yet

Add a comment

 :: Related Torrents

Login to see Related Torrents





By using this site, you are agreeing to the Terms and Conditions
TorrentPortal only stores .torrent files for cache purposes. All torrent data gathered has been scraped from the web or submitted by users.
DMCA CONTENT REMOVAL: to have content removed email infringement (AT) torrentportal.com with the URL to the torrent details page.
torrent rss feeds (RSS) (XML) ALL = Games Movies TV Videos Apps Anime Audio Comics Unsorted