TorrentPortal

Search

Go

 :: File Stats

Wrath Of The Titans 2012 DVDRip XviD- AC3 Torrent Details

Filename: Wrath Of The Titans 2012 DVDRip XviD- AC3.torrent
Type
Movies
Seed/Leech
0 seeder(s), 0 leecher(s), 0 total peer(s) - Torrent Health: Health 0/5
0 downloads completed with 0.00KB (0 bytes) transferred (not reported)
Last Stats Update: 101 weeks 5 days 4 minutes ago - Live Stats down the page
Rating

Torrent Rating:0.0/5 ( votes cast)
Please only rate torrents you have downloaded.

Flag
No flags set       (Log in to flag it)
Info Hash
6980ec142df1618c827a882906349e498c95b882
Tracker
http://tracker.t411.me:56969/
Size
708.56 MB (742,980,666 bytes)
Added
2012-04-30 02:12:31 - 102 weeks 3 days 24 hours 48 minutes ago
Uploaded By
roliviu (Karma: -3)
Number of Files
4 files
[See File List]
Password
No password specified

Usenet

This file may be available on Usenet for direct download. Click here to Search.
Download This Torrent
Magnet Link
Direct Download
Download (No Client Needed) Stream Video
Try the Magnet Link (above) if the .torrent doesn't work.
Most modern clients support magnet links, if yours does not, try uTorrent.
LIVE TORRENT STATS:

Screenshot/Image:

No Screenshot/Image Uploaded

Description:

Perseus braves the treacherous underworld to rescue his father, Zeus, captured by his son, Ares, and brother Hades who unleash the ancient Titans upon the world.

http://www.imdb.com/title/tt1646987/

Format : AVI
Format/Info : Audio Video Interleave
Duration : 1h 30mn
Overall bit rate : 2 000 Kbps

Video
ID : 0
Format : MPEG-4 Visual
Codec ID : XVID
Duration : 1h 30mn
Bit rate : 1 799 Kbps
Width : 720 pixels
Height : 384 pixels
Display aspect ratio : 1.875
Frame rate : 25.000 fps
Stream size : 1.13 GiB (90%)

Audio
ID : 1
Format : AC-3
Duration : 1h 30mn
Bit rate : 192 Kbps
Channel(s) : 2 channels
Channel positions : Front: L R
Sampling rate : 48.0 KHz
Stream size : 124 MiB (10%)

 :: File Comments

No comments yet

Add a comment

 :: Related Torrents

Login to see Related Torrents





By using this site, you are agreeing to the Terms and Conditions
TorrentPortal only stores .torrent files for cache purposes. All torrent data gathered has been scraped from the web or submitted by users.
DMCA CONTENT REMOVAL: to have content removed email infringement (AT) torrentportal.com with the URL to the torrent details page.
torrent rss feeds (RSS) (XML) ALL = Games Movies TV Videos Apps Anime Audio Comics Unsorted