TorrentPortal

Search

Go

 :: File Stats

Prometheus.[2012].R5.DVDRip.XVID.AC3.5.1.HQ.Hive.CM8 Torrent Details

Filename: Prometheus.[2012].R5.DVDRip.XVID.AC3.5.1.HQ.Hive.CM8.torrent
Type
Movies
Seed/Leech
0 seeder(s), 0 leecher(s), 0 total peer(s) - Torrent Health: Health 0/5
0 downloads completed with 0.00KB (0 bytes) transferred (not reported)
Last Stats Update: 99 weeks 1 days 3 minutes ago - Live Stats down the page
Rating

Torrent Rating:0.0/5 ( votes cast)
Please only rate torrents you have downloaded.

Flag
No flags set       (Log in to flag it)
Info Hash
f8621a3d94f9b9f79fec7d93db2537f76f8baead
Tracker
http://pow7.com/announce
Size
797.83 MB (836,589,085 bytes)
Added
2012-05-14 10:07:55 - 100 weeks 3 days 16 hours 51 minutes ago
Uploaded By
Thompson3817 (Karma: -4)
Number of Files
18 files
[See File List]
Password
No password specified

Usenet

This file may be available on Usenet for direct download. Click here to Search.
Download This Torrent
Magnet Link
Direct Download
Download (No Client Needed) Stream Video
Try the Magnet Link (above) if the .torrent doesn't work.
Most modern clients support magnet links, if yours does not, try uTorrent.
LIVE TORRENT STATS:

Screenshot/Image:

Description:

General
Complete name                  : Prometheus.[2012].R5.DVDRip.XVID.AC3.5.1.HQ.Hive.CM8
Format                         : AVI
Format/Info                    : Audio Video Interleave
File size                      : 1.59 GiB
Duration                       : 1h 45mn
Overall bit rate               : 2 158 Kbps
Writing application            : Nandub v1.0rc2
Writing library                : Nandub build 1853/release

Video
ID                             : 0
Format                         : MPEG-4 Visual
Format profile                 : Advanced Simple@L5
Format settings, BVOP          : 2
Format settings, QPel          : Yes
Format settings, GMC           : No warppoints
Format settings, Matrix        : Default (H.263)
Muxing mode                    : Packed bitstream
Codec ID                       : XVID
Codec ID/Hint                  : XviD
Duration                       : 1h 45mn
Bit rate                       : 1 700 Kbps
Width                          : 720 pixels
Height                         : 304 pixels
Display aspect ratio           : 2.35:1
Frame rate                     : 25.000 fps
Color space                    : YUV
Chroma subsampling             : 4:2:0
Bit depth                      : 8 bits
Scan type                      : Progressive
Compression mode               : Lossy
Bits/(Pixel*Frame)             : 0.311
Stream size                    : 1.25 GiB (79%)
Writing library                : XviD 1.2.1 (UTC 2008-12-04)

Audio
ID                             : 1
Format                         : AC-3
Format/Info                    : Audio Coding 3
Mode extension                 : CM (complete main)
Codec ID                       : 2000
Duration                       : 1h 45mn
Bit rate mode                  : Constant
Bit rate                       : 448 Kbps
Channel(s)                     : 6 channels
Channel positions              : Front: L C R, Side: L R, LFE
Sampling rate                  : 48.0 KHz
Bit depth                      : 16 bits
Compression mode               : Lossy
Delay relative to video        : 4ms
Stream size                    : 338 MiB (21%)
Alignment                      : Split accross interleaves
Interleave, duration           : 40 ms (1.00 video frame)
Interleave, preload duration   : 500 ms

Plot:

A team of scientists journey through the universe on the spaceship "Prometheus" on a voyage to investigate Alien life forms. The team of scientists becomes stranded on an Alien world, and as they struggle to survive it becomes clear that the horrors they experience are not just a threat to themselves, but to all of mankind.

 :: File Comments

No comments yet

Add a comment

 :: Related Torrents

Login to see Related Torrents





By using this site, you are agreeing to the Terms and Conditions
TorrentPortal only stores .torrent files for cache purposes. All torrent data gathered has been scraped from the web or submitted by users.
DMCA CONTENT REMOVAL: to have content removed email infringement (AT) torrentportal.com with the URL to the torrent details page.
torrent rss feeds (RSS) (XML) ALL = Games Movies TV Videos Apps Anime Audio Comics Unsorted