TorrentPortal

Search

Go

 :: File Stats

Total Recall 2012 DVDRip XviD AC3-26K.torrent Torrent Details

Filename: Total Recall 2012 DVDRip XviD AC3-26K.torrent
Type
Movies
Seed/Leech
0 seeder(s), 0 leecher(s), 0 total peer(s) - Torrent Health: Health 0/5
0 downloads completed with 0.00KB (0 bytes) transferred (not reported)
Last Stats Update: 99 weeks 7 days 22 hours 36 minutes ago - Live Stats down the page
Rating

Torrent Rating:0.0/5 ( votes cast)
Please only rate torrents you have downloaded.

Flag
No flags set       (Log in to flag it)
Info Hash
475c5bfea7f5730b34fb45461910e9852b644d4d
Tracker
http://exodus.desync.com:6969/announce
Size
628.00 MB (658,507,748 bytes)
Added
2012-05-17 00:12:20 - 100 weeks 2 days 23 hours 19 minutes ago
Uploaded By
futarenz143 (Karma: 0)
Number of Files
5 files
[See File List]
Password
No password specified

Usenet

This file may be available on Usenet for direct download. Click here to Search.
Download This Torrent
Magnet Link
Direct Download
Download (No Client Needed) Stream Video
Try the Magnet Link (above) if the .torrent doesn't work.
Most modern clients support magnet links, if yours does not, try uTorrent.
LIVE TORRENT STATS:

Screenshot/Image:

No Screenshot/Image Uploaded

Description:


CODE:


2011 DVDRip XviD AC3-26K


Sources:
DVDR

Notes:
Encoded the video added a few filters to make it look nice


Greetz:
To all the people who have helped me you know who you are

Anything to offer email us @: 26k@hushmail.me

Video
ID                                       : 0
Format                                   : MPEG-4 Visual
Format profile                           : Advanced Simple@L5
Format settings, BVOP                    : 2
Format settings, QPel                    : No
Format settings, GMC                     : No warppoints
Format settings, Matrix                  : Default (H.263)
Muxing mode                              : Packed bitstream
Codec ID                                 : XVID
Codec ID/Hint                            : XviD
Duration                                 : 1h 32mn
Bit rate                                 : 2 295 Kbps
Width                                    : 720 pixels
Height                                   : 388 pixels
Display aspect ratio                     : 1.856
Frame rate                               : 25.000 fps
Color space                              : YUV
Chroma subsampling                       : 4:2:0
Bit depth                                : 8 bits
Scan type                                : Progressive
Compression mode                         : Lossy
Bits/(Pixel*Frame)                       : 0.329
Stream size                              : 1.49 GiB (83%)
Writing library                          : XviD 1.2.1 (UTC 2008-12-04)

Audio
ID                                       : 1
Format                                   : AC-3
Format/Info                              : Audio Coding 3
Mode extension                           : CM (complete main)
Codec ID                                 : 2000
Duration                                 : 1h 32mn
Bit rate mode                            : Constant
Bit rate                                 : 448 Kbps
Channel(s)                               : 6 channels
Channel positions                        : Front: L C R, Side: L R, LFE
Sampling rate                            : 48.0 KHz
Bit depth                                : 16 bits
Compression mode                         : Lossy
Stream size                              : 298 MiB (16%)
Alignment                                : Aligned on interleaves
Interleave, duration                     : 32 ms (0.80 video frame)
Interleave, preload duration             : 32 ms





Thank you smallz for banner!

 :: File Comments

No comments yet

Add a comment

 :: Related Torrents

Login to see Related Torrents





By using this site, you are agreeing to the Terms and Conditions
TorrentPortal only stores .torrent files for cache purposes. All torrent data gathered has been scraped from the web or submitted by users.
DMCA CONTENT REMOVAL: to have content removed email infringement (AT) torrentportal.com with the URL to the torrent details page.
torrent rss feeds (RSS) (XML) ALL = Games Movies TV Videos Apps Anime Audio Comics Unsorted